#TITLE:Bloom;
#SUBTITLE:Expi3nze;
#ARTIST:GaIn;
#TITLETRANSLIT:;
#SUBTITLETRANSLIT:;
#ARTISTTRANSLIT:;
#CREDIT:;
#BANNER:bn.png;
#BACKGROUND:bg.png;
#LYRICSPATH:;
#CDTITLE:cdtitle.png;
#MUSIC:Bloom.mp3;
#OFFSET:-0.424;
#SAMPLESTART:100.000;
#SAMPLELENGTH:12.000;
#SELECTABLE:YES;
#BPMS:0.000=123.998,2.000=124.004,3.000=123.998,5.000=124.004,6.000=123.998,9.000=124.004,10.000=123.998,12.000=124.004,13.000=123.998,16.000=124.004,17.000=123.998,19.000=124.004,20.000=123.998,23.000=124.004,24.000=123.998,26.000=124.004,27.000=123.998,30.000=124.004,31.000=123.998,33.000=124.004,34.000=123.998,36.000=124.004,37.000=123.998,40.000=124.004,41.000=123.998,43.000=124.004,44.000=123.998,47.000=124.004,48.000=123.998,50.000=124.004,51.000=123.998,54.000=124.004,55.000=123.998,57.000=124.004,58.000=123.998,61.000=124.004,62.000=123.998,64.000=124.004,65.000=123.998,67.000=124.004,68.000=123.998,71.000=124.004,72.000=123.998,74.000=124.004,75.000=123.998,78.000=124.004,79.000=123.998,81.000=124.004,82.000=123.998,85.000=124.004,86.000=123.998,88.000=124.004,89.000=123.998,92.000=124.004,93.000=123.998,95.000=124.004,96.000=123.998,99.000=124.004,100.000=123.998,102.000=124.004,103.000=123.998,105.000=124.004,106.000=123.998,109.000=124.004,110.000=123.998,112.000=124.004,113.000=123.998,116.000=124.004,117.000=123.998,119.000=62.002,119.250=248.031,119.750=62.002,120.000=248.031,120.500=124.004,121.000=123.998,122.000=124.004,123.000=123.998,126.000=124.004,127.000=62.002,127.250=248.031,127.750=62.002,128.000=248.031,128.500=124.004,129.000=123.998,130.000=124.004,131.000=123.998,133.000=62.004,133.333=247.997,134.000=124.004,135.000=123.998,137.000=62.004,137.333=247.997,138.000=124.004,139.000=123.998,141.000=124.004,142.000=123.998,144.000=124.004,144.500=62.004,144.833=248.031,145.000=247.985,145.500=124.004,146.000=123.998,147.000=124.004,148.000=123.998,149.000=248.008,151.000=124.004,152.000=62.002,152.250=248.031,152.750=62.002,153.000=248.031,153.500=124.004,154.000=123.998,155.000=124.004,156.000=123.998,159.000=124.004,160.000=62.002,160.250=248.031,160.750=62.002,161.000=248.031,161.500=124.004,162.000=123.998,163.000=124.004,164.000=123.998,167.000=124.004,168.000=123.998,170.000=124.004,171.000=123.998,174.000=124.004,175.000=123.998,177.000=124.004,177.500=62.004,177.833=248.031,178.000=247.985,178.500=62.004,178.833=248.031,179.000=247.985,179.500=124.004,180.000=123.998,181.000=124.004,182.000=123.998,185.000=124.004,186.000=123.998,188.000=124.004,189.000=123.998,192.000=124.004,193.000=123.998,195.000=124.004,196.000=123.998,199.000=124.004,200.000=123.998,202.000=124.004,203.000=123.998,206.000=124.004,207.000=123.998,209.000=124.004,210.000=123.998,213.000=124.004,214.000=123.998,216.000=124.004,217.000=123.998,219.000=124.004,220.000=123.998,223.000=124.004,224.000=123.998,226.000=124.004,227.000=123.998,230.000=124.004,231.000=123.998,233.000=124.004,234.000=123.998,237.000=124.004,238.000=123.998,240.000=124.004,241.000=123.998,244.000=124.004,245.000=123.998,247.000=124.004,248.000=123.998,251.000=124.004,252.000=123.998,254.000=61.999,254.167=248.031,254.500=61.999,254.667=248.031,255.000=61.999,255.167=248.031,255.500=61.999,255.667=248.031,256.000=61.999,256.167=248.031,256.500=61.999,256.667=248.031,257.000=61.999,257.167=248.031,257.500=124.004,258.000=123.998,260.000=124.004,261.000=123.998,262.000=248.008,264.000=124.004,265.000=123.998,268.000=124.004,269.000=123.998,271.000=124.004,272.000=123.998,275.000=124.004,276.000=123.998,278.000=124.004,279.000=123.998,282.000=124.004,283.000=123.998,285.000=124.004,286.000=123.998,289.000=124.004,290.000=123.998,292.000=124.004,293.000=123.998,294.000=248.008,296.000=124.004,297.000=123.998,300.000=124.004,301.000=123.998,303.000=124.004,304.000=123.998,307.000=124.004,308.000=123.998,310.000=124.004,311.000=123.998,314.000=124.004,315.000=123.998,317.000=124.004,318.000=123.998,321.000=124.004,322.000=62.002,322.250=248.031,322.750=62.002,323.000=248.031,323.500=62.002,323.750=248.031,324.250=124.000,325.000=124.004,326.000=123.998;
#STOPS:;
#BGCHANGES:;
// cache tags:
#FIRSTBEAT:16.000;
#LASTBEAT:324.250;
#SONGFILENAME:Songs/Expi3nze 4th Collection/Bloom (Gain)/Bloom.sm;
#HASMUSIC:1;
#HASBANNER:1;
#MUSICLENGTH:158.044;
// end cache tags

//---------------dance-single - ----------------
#NOTES:
     dance-single:
     :
     Hard:
     16:
     0.823,1.000,1.000,0.652,0.297,612.000,188.000,103.000,0.000,58.000:
0000
0000
0000
0000
,
0000
0000
0000
0000
,
0000
0000
0000
0000
,
0000
0000
0000
0000
,
0001
0001
0001
2001
,
0001
0000
0000
0000
3011
0000
1000
0100
0011
1000
0100
0000
1000
0000
0001
0010
,
0101
1000
0010
0000
0010
0000
1000
0100
1010
0001
0100
0000
1000
0000
0010
0100
,
1001
0010
0100
0000
0001
0000
1000
0100
0011
1000
0100
0000
0010
0000
1000
0010
,
0101
0010
1000
1000
1010
0101
1000
0000
0101
0000
0101
0000
0000
0000
0000
0000
,
0000
0000
0000
0000
1000
0000
1000
0010
1100
0010
0001
0000
0200
0000
0000
2300
,
0000
3002
1003
1000
1100
0001
0001
0010
,
1001
0000
0010
0000
0010
0000
1000
0010
0101
0010
1000
0000
0020
0000
0000
0032
,
0000
0203
0301
0010
1001
0001
1000
0001
,
0011
0000
1000
1010
1101
0000
1000
0000
0011
0000
1000
0000
0100
0000
0010
0000
,
1001
1000
0001
0010
1001
0010
0100
0001
,
1100
0000
0010
0000
0001
0000
1000
0010
0101
0010
1000
0000
0002
0000
0000
0203
,
0000
0000
0302
0000
1003
0000
0100
0000
1001
0000
1000
0000
1000
1000
1000
1000
,
1000
1000
1000
1000
1000
0000
0001
0010
0101
1000
0001
0000
0002
0000
0000
2003
,
0000
3020
0031
0001
0011
1000
1000
0010
,
1001
0000
1000
0000
0001
0000
1000
0100
1010
0001
1000
0000
2000
0000
0000
3020
,
0000
0032
1103
0001
1100
0001
0010
0100
,
1001
0000
0001
0101
1011
0000
0100
0000
0101
0000
0001
0000
1000
0000
0100
0000
,
0011
0100
1000
0010
0101
1000
0010
0010
,
1100
0000
0010
0000
0001
0000
1000
1000
0011
0100
1000
0000
0002
0000
0000
2003
,
0000
0000
3002
0000
1003
0000
1000
0000
0001
0000
0010
0000
0001
0001
0001
0001
,
0001
0001
0001
0001
0001
0000
2000
0000
0000
0000
3200
0000
0301
0000
0002
1000
,
0100
0000
2003
0000
3010
0000
0020
0000
0000
0000
0230
0000
0301
0000
0000
0100
,
0010
0200
0000
0302
0103
0020
0000
2030
,
3010
0000
0020
0000
0000
0000
0030
0000
0010
0000
0010
0000
0010
0010
0010
0010
,
0010
0010
0010
0010
0012
0000
0000
0000
1000
0000
0100
0000
2010
0000
0000
3200
,
0000
0320
1033
1000
1001
0001
2000
0000
,
3210
0000
0000
0000
0312
0000
0000
0000
1010
0000
1000
0000
0020
0000
0000
0230
,
0000
2300
3013
0010
1010
1001
1010
0011
,
0011
1001
0001
0000
1010
0000
1010
1010
,
0101
0101
0101
0000
1001
0000
1000
0010
,
1100
0001
1000
0001
2000
0200
3020
0302
,
1133
0000
1100
0000
0000
0000
1010
0000
1010
0000
0011
0000
2010
0010
0010
0010
,
3012
0010
0010
0000
2213
0000
0000
0000
0000
0000
0000
0000
3312
0000
0000
0000
,
2000
0000
0000
3200
0000
0000
0320
0000
0000
0030
1000
0000
1013
0000
1000
0000
,
0001
0000
1000
0000
0011
0000
1000
1000
1000
1000
1000
1000
1002
0000
0000
0000
,
2000
0000
0000
3200
0000
0000
0320
0000
1000
0030
1000
0000
1103
0000
0001
0000
,
1100
1001
0011
0110
1100
1000
0011
1001
,
1010
1010
0101
0101
0100
0001
1100
1100
,
2000
0000
3211
0000
0312
0000
1010
0010
,
2000
0000
0010
3020
0003
0032
0000
2003
,
0001
0001
3001
0001
0001
0001
0001
0001
0011
0000
2000
0000
0010
0000
3020
0000
,
1030
1000
0011
1000
1000
0002
1010
2003
,
3010
0010
1000
0020
0000
2030
0010
3020
,
1030
1000
0011
1000
0001
0200
0011
0320
,
1030
0100
0011
1000
0010
0010
1001
0100
,
0010
0000
1000
0000
1010
0000
0100
0000
1000
0000
0001
0010
1100
0001
1000
0000
,
0010
0010
0101
0020
1000
1000
1130
0001
,
0001
0100
1001
0002
1000
1000
1013
0100
,
1000
0000
0010
0000
0101
0000
0101
0010
0100
0000
0001
0000
0101
0000
0010
0000
,
0001
1000
0011
1000
0001
0010
1100
0001
,
0001
0100
0101
0200
0001
0001
0311
0020
,
0001
0001
1031
0100
0010
0001
2000
0200
,
3312
0010
0010
0010
0010
0010
0010
0010
2013
0000
0000
0000
0000
0000
0000
0000
,
0000
0000
0000
0000
3011
0000
0100
0100
,
0001
0010
0100
0000
0002
0000
0000
0000
,
0000
0000
0000
0000
1013
0000
1000
1000
,
0011
1000
0100
0010
0101
1000
0101
1000
,
0011
1000
0011
1000
1001
1000
0011
1000
,
0001
1000
0101
1000
0101
0101
0101
0101
,
0101
0000
0101
0000
0101
0000
0101
0000
1001
0101
1001
0101
1001
0101
1001
0101
,
1001
0101
1001
0101
1001
0101
1001
0101
1001
0000
0000
0000
0000
0000
0000
0000
,
1112
0000
1000
1000
0110
1000
0010
1000
,
0113
0000
1000
0100
1001
0010
0100
1000
0011
0000
1000
0100
1001
0101
1001
0001
,
2101
0000
0012
0000
3023
0002
0130
0020
,
1133
1001
0011
0110
1100
1000
0011
0000
,
0011
0011
1100
0011
0011
1000
0011
1000
,
1001
1010
1002
0000
2013
0000
3020
0000
,
0101
0000
0001
0000
0201
0000
0000
0000
0001
0000
0302
0000
1030
0100
2003
0000
,
0101
3020
0000
0000
0000
0000
0030
0000
,
0111
0000
1000
0010
1100
0010
0001
0000
0200
0000
0000
2300
0000
0000
3002
0000
,
1003
1000
1100
0001
0001
0010
1001
0010
,
0010
0000
1000
0010
0101
0010
1000
0000
0020
0000
0000
0032
0000
0000
0203
0000
,
0301
0010
1001
0001
1000
0001
1100
0001
,
1000
0100
0011
1000
0100
0010
1001
1000
,
0001
0010
1001
0010
0100
0001
1100
0010
,
0001
0000
1000
0010
0101
0010
1000
0100
0002
0000
0000
0203
0000
0000
0320
0000
,
0000
0030
0000
0000
0000
0000
0000
0000
0000
0000
0000
0000
0000
0000
0000
0000
,
0000
0000
0000
0000
,
0000
0000
0000
0000
,
0000
0000
0000
0000
,
0000
0000
0000
0000
,
0000
0000
0000
0000
,
0000
0000
0000
0000
,
0000
0000
0000
0000
,
0000
0000
0000
0000
,
0000
0000
0000
0000
,
0000
0000
0000
0000
;
